2018最新喜剧电影《熟女镇》中英双字第五季

-->

◎译  名 熟女镇/熟女当道

◎片  名 Cougar Town

◎年  代 2009

◎产  地 美国

◎类  别 喜剧

◎语  言 英语

◎上映日期 2009-09-23(美国)

◎豆瓣评分 7.5/10 from 6,019 users

◎豆瓣链接 https://movie.douban.com/subject/3750732/

◎BT之家整理 http://www.btbtt.us/

◎片  长 30分钟

◎导  演 Bill Lawrence

◎主  演 柯特妮·考克斯 Courteney Cox

乔什·霍普金斯 Josh Hopkins

丹·伯德 Dan Byrd

布莱恩·范·霍尔特 Brian Van Holt

贝茜·菲利普斯 Busy Philipps

克瑞丝塔·米勒 Christa Miller

伊恩·戈麦斯 Ian Gomez

◎简  介

40岁的离异女性Jules(柯特妮·考克斯 Courteney Cox 饰)从事房地产生意,希望还可以找到自己的真爱。在好友Elle(克瑞丝塔·米勒 Christa Miller 饰)和助理Laurie(贝茜·菲利普斯 Busy Philipps 饰)的共同劝说下,Jules放下之前自己的所有原则,回到有各种男人的社交圈。不久之后,她遇到了一个叫Josh(尼克·扎诺 Nick Zano 饰)年轻男人,两人似乎一见如故。美丽大方而成熟的Jules和青春年少的Josh之间很快产生了火花,但是彼此的年龄还是产生了很大隔阂。另一件让Jules心烦的事就是那个花花公子般的英俊的邻居Grayson(乔什·霍普金斯 Josh Hopkins 饰)竟然是她儿子Travis(丹·伯德 Dan Byrd 饰)的心理顾问……

◎获奖情况

第67届金球奖  (2010)

电视类 音乐/喜剧类剧集最佳女主角(提名) 柯特妮·考克斯

Video
ID : 1
Format : AVC
Format/Info : Advanced Video Codec
Format profile : High@L4
Format settings : CABAC / 4 Ref Frames
Format settings, CABAC : Yes
Format settings, ReFrames : 4 frames
Codec ID : V_MPEG4/ISO/AVC
Duration : 21 min 6 s
Bit rate mode : Variable
Bit rate : 12.3 Mb/s
Maximum bit rate : 15.0 Mb/s
Width : 1 920 pixels
Height : 1 080 pixels
Display aspect ratio : 16:9
Frame rate mode : Constant
Frame rate : 23.976 (24000/1001) FPS
Color space : YUV
Chroma subsampling : 4:2:0
Bit depth : 8 bits
Scan type : Progressive
Bits/(Pixel*Frame) : 0.247
Stream size : 1.81 GiB (93%)
Writing library : x264 core 148 r2623 d5b2374
Encoding settings : cabac=1 / ref=4 / deblock=1:-1:-1 / analyse=0x3:0x133 / me=umh / subme=9 / psy=1 / psy_rd=1.00:0.15 / mixed_ref=1 / me_range=24 / chroma_me=1 / trellis=2 / 8x8dct=1 / cqm=0 / deadzone=21,11 / fast_pskip=1 / chroma_qp_offset=-3 / threads=34 / lookahead_threads=5 / sliced_threads=0 / nr=150 / decimate=1 / interlaced=0 / bluray_compat=0 / constrained_intra=0 / bframes=8 / b_pyramid=2 / b_adapt=2 / b_bias=0 / direct=3 / weightb=1 / open_gop=0 / weightp=2 / keyint=120 / keyint_min=61 / scenecut=0 / intra_refresh=0 / rc_lookahead=120 / rc=crf / mbtree=1 / crf=18.0 / qcomp=0.60 / qpmin=0 / qpmax=69 / qpstep=4 / vbv_maxrate=15000 / vbv_bufsize=31250 / crf_max=0.0 / nal_hrd=vbr / filler=0 / ip_ratio=1.40 / aq=3:1.00
Default : Yes
Forced : No
Color range : Limited
Color primaries : BT.709
Transfer characteristics : BT.709
Matrix coefficients : BT.709

Audio
ID : 2
Format : E-AC-3
Format/Info : Enhanced AC-3
Commercial name : Dolby Digital Plus
Codec ID : A_EAC3
Duration : 21 min 6 s
Bit rate mode : Constant
Bit rate : 640 kb/s
Channel(s) : 6 channels
Channel layout : L R C LFE Ls Rs
Sampling rate : 48.0 kHz
Frame rate : 31.250 FPS (1536 SPF)
Compression mode : Lossy
Stream size : 96.6 MiB (5%)
Language : English
Service kind : Complete Main
Default : Yes
Forced : No

Text
ID : 3
Format : UTF-8
Codec ID : S_TEXT/UTF8
Codec ID/Info : UTF-8 Plain Text
Language : English
Default : No
Forced : No

发表评论

:?: :razz: :sad: :evil: :!: :smile: :oops: :grin: :eek: :shock: :???: :cool: :lol: :mad: :twisted: :roll: :wink: :idea: :arrow: :neutral: :cry: :mrgreen:

关闭震动